Up.For.Love.2016.DVDRip.x264-RedBlade[PRiME]

  • Category Movies
  • Type Divx/Xvid
  • Language English
  • Total size 459.8 MB
  • Uploaded By showstopper
  • Downloads 229
  • Last checked 1 month ago
  • Date uploaded 1 month ago
  • Seeders 18
  • Leechers 2

Up for Love

ComedyRomance

Diane is a well-known lawyer, divorced for three years. She loses her mobile telephone and receives a call from the person who finds it. That person is Alexandre, a charming man and the perfect gentleman. They make a connection over the phone and agree to meet up the following day. But when Alexandre arrives, there's a surprise in store when Diane discovers he is only 4' 6" tall. From that moment on, Diane tries to overcome the prejudices of society and her own fears to experience the best time of her life...

Infohash : D75E81DEBA16D73FBA5E803903EE9DD930CDD848


Up.For.Love.2016.DVDRip.x264-RedBlade[PRiME]

ImDb: http://www.imdb.com/title/tt4699388



Complete name : Up.For.Love.2016.DVDRip.x264-RedBlade[PRiME].mkv
Format : Matroska
Format version : Version 2
File size : 460 MiB
Duration : 1 h 34 min
Overall bit rate : 682 kb/s
Encoded date : UTC 2017-04-17 18:17:45
Writing application : mkvmerge v10.0.0 ('To Drown In You') 64bit
Writing library : libebml v1.3.4 + libmatroska v1.4.5

Video
ID : 1
Format : AVC
Format/Info : Advanced Video Codec
Format profile : [email protected]
Format settings, CABAC : Yes
Format settings, ReFrames : 5 frames
Codec ID : V_MPEG4/ISO/AVC
Duration : 1 h 34 min
Bit rate : 564 kb/s
Width : 720 pixels
Height : 300 pixels
Display aspect ratio : 2.40:1
Frame rate mode : Constant
Frame rate : 25.000 FPS
Color space : YUV
Chroma subsampling : 4:2:0
Bit depth : 8 bits
Scan type : Progressive
Bits/(Pixel*Frame) : 0.104
Stream size : 380 MiB (83%)
Writing library : x264 core 148 r2744 b97ae06
Encoding settings : cabac=1 / ref=5 / deblock=1:0:0 / analyse=0x3:0x113 / me=hex / subme=8 / psy=1 / psy_rd=1.00:0.00 / mixed_ref=1 / me_range=16 / chroma_me=1 / trellis=2 / 8x8dct=1 / cqm=0 / deadzone=21,11 / fast_pskip=1 / chroma_qp_offset=-2 / threads=6 / lookahead_threads=1 / sliced_threads=0 / nr=0 / decimate=1 / interlaced=0 / bluray_compat=0 / constrained_intra=0 / bframes=3 / b_pyramid=2 / b_adapt=1 / b_bias=0 / direct=3 / weightb=1 / open_gop=0 / weightp=2 / keyint=250 / keyint_min=25 / scenecut=40 / intra_refresh=0 / rc_lookahead=50 / rc=crf / mbtree=1 / crf=19.0 / qcomp=0.60 / qpmin=10 / qpmax=51 / qpstep=4 / vbv_maxrate=17500 / vbv_bufsize=17500 / crf_max=0.0 / nal_hrd=none / filler=0 / ip_ratio=1.40 / aq=1:1.00
Language : English
Default : Yes
Forced : No

Audio
ID : 2
Format : AAC
Format/Info : Advanced Audio Codec
Format profile : LC
Codec ID : A_AAC
Duration : 1 h 34 min
Bit rate : 116 kb/s
Channel(s) : 2 channels
Channel positions : Front: L R
Sampling rate : 48.0 kHz
Frame rate : 46.875 FPS (1024 spf)
Compression mode : Lossy
Delay relative to video : 9 ms
Stream size : 78.0 MiB (17%)
Language : French
Default : Yes
Forced : No




Click Image To View Full Size


Click To View Screenshot
Click To View Screenshot
Click To View Screenshot

Files:

Up.For.Love.2016.DVDRip.x264-RedBlade[PRiME]
  • Please Support!! Read More!!!.txt (0.3 KB)
  • Torrent Downloaded From tenlister.com.txt (0.1 KB)
  • Torrent Downloaded From ExtraTorrent.cc.txt (0.4 KB)
  • Up.For.Love.2016.DVDRip.x264-RedBlade[PRiME].mkv (459.8 MB)

There are currently no comments. Feel free to leave one :)

Code:

  • udp://tracker.ilibr.org:6969/announce
  • udp://tracker.coppersurfer.tk:6969
  • udp://tracker.ilibr.org:80/announce
  • udp://tracker.coppersurfer.tk:6969/announce
  • udp://tracker.leechers-paradise.org:6969/announce
  • udp://tracker.opentrackr.org:1337/announce
  • udp://tracker.zer0day.to:1337/announce
  • udp://ipv4.tracker.harry.lu:80/announce
  • udp://p4p.arenabg.ch:1337/announce
  • udp://p4p.arenabg.com:1337/announce
  • udp://9.rarbg.com:2710/announce
  • udp://9.rarbg.to:2710/announce
  • udp://9.rarbg.me:2710/announce
  • udp://explodie.org:6969/announce
  • udp://eddie4.nl:6969/announce